10 Cloverfield Lane (2016) 1080p 10bit Bluray x265 HEVC [Org DD 5 1 Hindi + DD 5 1 English] MSubs ~ TombDoc torrent download

seeders: 122
leechers: 124
updated:
Added ago by McuDudeS ***** in Movies
Torrent Downloaded 10 times.
Info Hash: 95CE35748EC5CE6F6CFD30C8190A6273460AFB61


Torrent Files

10 Cloverfield Lane (2016) 1080p 10bit Bluray x265 HEVC [Org DD 5 1 Hindi + DD 5 1 English] MSubs ~ TombDoc (Size: 3.3 GB)
  10 Cloverfield Lane (2016) 1080p 10bit Bluray x265 HEVC [Org DD 5 1 Hindi + DD 5 1 English] MSubs ~ TombDoc 3.3 GB

Torrent Description





Monsters come in many forms...





10 Cloverfield Lane (2016) 1080p 10bit Bluray x265 HEVC [Org DD 5.1 Hindi + DD 5.1 English] MSubs ~ TombDoc


Org Untouched DvD DD 5.1 448kbps Hindi Audio By Titan {Thanks}


Code:

Format : Matroska
Format version : Version 4
File size : 3.27 GiB
Duration : 1 h 43 min
Overall bit rate : 4 516 kb/s
Writing frontend : TombDoc

Video
ID : 1
Format : HEVC
Format/Info : High Efficiency Video Coding
Format profile : Main [email protected]@Main
Codec ID : V_MPEGH/ISO/HEVC
Duration : 1 h 43 min
Bit rate : 3 652 kb/s
Width : 1 920 pixels
Height : 800 pixels
Display aspect ratio : 2.40:1
Frame rate mode : Constant
Frame rate : 23.976 (24000/1001) FPS
Color space : YUV
Chroma subsampling : 4:2:0
Bit depth : 10 bits
Bits/(Pixel*Frame) : 0.099
Stream size : 2.64 GiB (81%)
Writing library : x265 3.0_RC+11-9a975542fe39:[Windows][MSVC 1920][64 bit] 10bit
Encoding settings : cpuid=1049583 / frame-threads=5 / numa-pools=16,16 / wpp / no-pmode / no-pme / no-psnr / no-ssim / log-level=2 / input-csp=1 / input-res=1920x800 / interlace=0 / total-frames=149006 / level-idc=0 / high-tier=1 / uhd-bd=0 / ref=4 / no-allow-non-conformance / no-repeat-headers / annexb / no-aud / no-hrd / info / hash=0 / no-temporal-layers / open-gop / min-keyint=23 / keyint=250 / gop-lookahead=0 / bframes=8 / b-adapt=2 / b-pyramid / bframe-bias=0 / rc-lookahead=25 / lookahead-slices=4 / scenecut=40 / radl=0 / no-splice / no-intra-refresh / ctu=64 / min-cu-size=8 / rect / no-amp / max-tu-size=32 / tu-inter-depth=1 / tu-intra-depth=1 / limit-tu=0 / rdoq-level=2 / dynamic-rd=0.00 / ssim-rd / signhide / no-tskip / nr-intra=0 / nr-inter=0 / no-constrained-intra / strong-intra-smoothing / max-merge=3 / limit-refs=3 / limit-modes / me=3 / subme=3 / merange=57 / temporal-mvp / weightp / no-weightb / no-analyze-src-pics / deblock=0:0 / sao / no-sao-non-deblock / rd=4 / no-early-skip / rskip / no-fast-intra / no-tskip-fast / no-cu-lossless / no-b-intra / no-splitrd-skip / rdpenalty=0 / psy-rd=0.00 / psy-rdoq=1.00 / no-rd-refine / no-lossless / cbqpoffs=0 / crqpoffs=0 / rc=abr / bitrate=3650 / qcomp=0.60 / qpstep=4 / stats-write=0 / stats-read=2 / cplxblur=20.0 / qblur=0.5 / ipratio=1.40 / pbratio=1.30 / aq-mode=3 / aq-strength=1.00 / cutree / zone-count=0 / no-strict-cbr / qg-size=32 / no-rc-grain / qpmax=69 / qpmin=0 / no-const-vbv / sar=0 / overscan=0 / videoformat=5 / range=0 / colorprim=2 / transfer=2 / colormatrix=2 / chromaloc=0 / display-window=0 / max-cll=0,0 / min-luma=0 / max-luma=1023 / log2-max-poc-lsb=8 / vui-timing-info / vui-hrd-info / slices=1 / no-opt-qp-pps / no-opt-ref-list-length-pps / no-multi-pass-opt-rps / scenecut-bias=0.05 / no-opt-cu-delta-qp / aq-motion / no-hdr / no-hdr-opt / no-dhdr10-opt / no-idr-recovery-sei / analysis-reuse-level=5 / scale-factor=0 / refine-intra=0 / refine-inter=0 / refine-mv=0 / refine-ctu-distortion=0 / no-limit-sao / ctu-info=0 / no-lowpass-dct / refine-analysis-type=0 / copy-pic=1 / max-ausize-factor=1.0 / no-dynamic-refine / no-single-sei / hevc-aq / qp-adaptation-range=1.00
Default : Yes
Forced : No

Audio #1
ID : 2
Format : AC-3
Format/Info : Audio Coding 3
Commercial name : Dolby Digital
Codec ID : A_AC3
Duration : 1 h 43 min
Bit rate mode : Constant
Bit rate : 448 kb/s
Channel(s) : 6 channels
Channel layout : L R C LFE Ls Rs
Sampling rate : 48.0 kHz
Frame rate : 31.250 FPS (1536 SPF)
Bit depth : 16 bits
Compression mode : Lossy
Delay relative to video : 7 s 642 ms
Stream size : 331 MiB (10%)
Title : Org DvD DD 5.1 448Kbps ~ TombDoc
Language : Hindi
Service kind : Complete Main
Default : Yes
Forced : Yes

Audio #2
ID : 3
Format : AC-3
Format/Info : Audio Coding 3
Commercial name : Dolby Digital
Codec ID : A_AC3
Duration : 1 h 43 min
Bit rate mode : Constant
Bit rate : 384 kb/s
Channel(s) : 6 channels
Channel layout : L R C LFE Ls Rs
Sampling rate : 48.0 kHz
Frame rate : 31.250 FPS (1536 SPF)
Bit depth : 16 bits
Compression mode : Lossy
Stream size : 284 MiB (9%)
Title : DD 5.1 English
Language : English
Service kind : Complete Main
Default : No
Forced : No

Text #1
ID : 4
Format : PGS
Muxing mode : zlib
Codec ID : S_HDMV/PGS
Codec ID/Info : Picture based subtitle format used on BDs/HD-DVDs
Duration : 1 h 39 min
Bit rate : 17.5 kb/s
Count of elements : 1682
Stream size : 12.4 MiB (0%)
Title : Hindi BD-PGS
Language : Hindi
Default : Yes
Forced : Yes

Text #2
ID : 5
Format : PGS
Muxing mode : zlib
Codec ID : S_HDMV/PGS
Codec ID/Info : Picture based subtitle format used on BDs/HD-DVDs
Duration : 1 h 32 min
Bit rate : 23.0 kb/s
Count of elements : 1644
Stream size : 15.3 MiB (0%)
Title : Eng BD-PGS
Language : English
Default : No
Forced : No

Text #3
ID : 6
Format : PGS
Muxing mode : zlib
Codec ID : S_HDMV/PGS
Codec ID/Info : Picture based subtitle format used on BDs/HD-DVDs
Duration : 1 h 43 min
Bit rate : 68.0 kb/s
Count of elements : 3840
Stream size : 50.2 MiB (2%)
Title : Commentary
Language : English
Default : No
Forced : No

Menu
00:00:00.000 : en:Chapter 01
00:05:55.605 : en:Chapter 02
00:14:52.517 : en:Chapter 03
00:19:18.157 : en:Chapter 04
00:24:11.992 : en:Chapter 05
00:32:21.940 : en:Chapter 06
00:42:59.243 : en:Chapter 07
00:47:47.740 : en:Chapter 08
00:53:37.089 : en:Chapter 09
00:57:00.626 : en:Chapter 10
01:03:10.745 : en:Chapter 11
01:11:20.193 : en:Chapter 12
01:15:49.420 : en:Chapter 13
01:24:21.265 : en:Chapter 14
01:28:19.085 : en:Chapter 15
01:37:31.512 : en:Chapter 16



Code:

Source: 10 Cloverfield Lane 2016 1080p CEE Blu-ray AVC TrueHD 7.1-HDClub





Related Torrents

torrent name size age seed leech
8.98 MB 1 minute 265 233
17.38 MB 1 minute 237 298
17.94 MB 1 minute 234 292
13.66 MB 1 minute 363 493
14.18 MB 1 minute 542 34

Sharing Widget


Download torrent
3.3 GB
seeders:1214
leechers:386
10 Cloverfield Lane (2016) 1080p 10bit Bluray x265 HEVC [Org DD 5 1 Hindi + DD 5 1 English] MSubs ~ TombDoc



To share this torrent use the code below and insert it into comments, status messages, forum posts or your signature.

Torrent: 10 Cloverfield Lane (2016) 1080p 10bit Bluray x265 HEVC [Org DD 5 1 Hindi + DD 5 1 English] MSubs ~ TombDoc

Comments

Latest Searches